Friedrich Gulda, Wiener Philharmoniker & Claudio Abbado - Mozart: Piano Concertos No. 25 & 27 (1974/2018) [24/96]

Posted By: SERTiL
Friedrich Gulda, Wiener Philharmoniker & Claudio Abbado - Mozart: Piano Concertos No. 25 & 27 (1974/2018) [24/96]

Friedrich Gulda, Wiener Philharmoniker & Claudio Abbado - Mozart: Piano Concertos No. 25 & 27 (1974/2018)
FLAC (tracks) 24-bit/96 kHz | Time - 67:08 minutes | 1.14 GB
Studio Master, Official Digital Download | Artwork: Front Cover

The year 1786 was one of Mozart's most fruitful, full of diverse works in his most mature vein. It was crowned with the production of the C major Concerto, K. 503, and the "Prague" Symphony. This concerto is the last of the series in C major, and combines with its companion K. 491 in C minor, which in turn succeeded the A major K. 488, to make a trilogy that has been likened to the three great symphonies of two years later. Whatever the family similarities between the other pieces may be, there is no doubt that the C major Concerto, like the C major Symphony, show Mozart glorying in the complete mastery of means and offering a certain Olympian grandeur that at the same time does not exclude his more tender, eloquent vein.

Its first moment is the most grand and heroic, as is evident from its very opening bars, and it is conceived on a scale that goes beyond anything even Mozart had written until then. If Beethoven's first two concertos are often described as Mozartian, this one by Mozart can truly be said to look forward to the younger composer's music but the "advanced" nature of the writing in this opening movement does not exclude subsidiary ideas in Mozart's sweetest, most feminine1 vein. The development is of a size to match the prodigality of material in the exposition.

Tracklist:
1. Piano Concerto No.25 in C, K.503 : 1. Allegro maestoso - Cadenza: Friedrich Gulda 16:27
2. Piano Concerto No.25 in C, K.503 : 2. Andante 08:22
3. Piano Concerto No.25 in C, K.503 : 3. Allegretto 09:58
4. Piano Concerto No.27 in B flat, K.595 : 1. Allegro - Cadenza: Mozart 14:47
5. Piano Concerto No.27 in B flat, K.595 : 2. Larghetto 08:13
6. Piano Concerto No.27 in B flat, K.595 : 3. Allegro - Cadenza: Mozart/Gulda/Mozart 09:21

Personnel:
Friedrich Gulda, piano
Wiener Philharmoniker
Claudio Abbado, conductor

Digitally remastered

foobar2000 1.3.7 / Dynamic Range Meter 1.1.1
log date: 2018-07-03 21:31:08

––––––––––––––––––––––––––––––––––––––––
Analyzed: Friedrich Gulda, Wiener Philharmoniker & Claudio Abbado / Mozart: Piano Concertos No. 25 & 27
––––––––––––––––––––––––––––––––––––––––

DR Peak RMS Duration Track
––––––––––––––––––––––––––––––––––––––––
DR13 -0.72 dB -19.69 dB 16:27 01-Piano Concerto No.25 in C, K.503 : 1. Allegro maestoso - Cadenza: Friedrich Gulda
DR15 -3.18 dB -24.60 dB 8:22 02-Piano Concerto No.25 in C, K.503 : 2. Andante
DR14 -1.32 dB -19.97 dB 9:58 03-Piano Concerto No.25 in C, K.503 : 3. Allegretto
DR14 -1.62 dB -21.49 dB 14:47 04-Piano Concerto No.27 in B flat, K.595 : 1. Allegro - Cadenza_ Mozart
DR14 -6.86 dB -26.34 dB 8:14 05-Piano Concerto No.27 in B flat, K.595 : 2. Larghetto
DR14 -0.61 dB -21.21 dB 9:22 06-Piano Concerto No.27 in B flat, K.595 : 3. Allegro - Cadenza: Mozart/Gulda/Mozart
––––––––––––––––––––––––––––––––––––––––

Number of tracks: 6
Official DR value: DR14

Samplerate: 96000 Hz
Channels: 2
Bits per sample: 24
Bitrate: 2410 kbps
Codec: FLAC
================================================================================


Thanks to the Original customer.
SitemapBen 10 Omniverse #808 - The Most Dangerous Game Show November 12, 2014 | Knights and Magic (13) | The Big Bang Theory S12E09 XviD-AFG[eztv]