Subcategories

Impact - Impact (1976) [2013, Remastered Reissue] {Japan}

Posted By: BlondStyle
Impact - Impact (1976) [2013, Remastered Reissue] {Japan}

Impact - Impact (1976) [2013, Remastered Reissue] {Japan}
R&B, Soul/Funk, Disco | EAC Rip | FLAC, Img+CUE+LOG+Scans (JPEG) | 40:21 Min | 289,90 Mb
Label: ATCO Records/Warner Music Japan Inc. (Japan) | Cat.# WPCR-27678 | Released: 2013-04-24 (1976)
Impact - Impact (1976) [2013, Remastered Reissue] {Japan}

This is the group that features the falsetto Damon Harris. As a member of the Temptations from 1971-75, Harris' airy yet earthy falsetto powered such classics including "Papa Was a Rolling Stone" and the drug epic "Hurry Tomorrow." After his stint with the group, Harris rejoined his childhood group. The production here is reminiscent of his then-W.M.O.T. labelmates Blue Magic, and is produced by Bobby Eli. Impact finds Harris' vocals getting warmer gives his fans a chance to hear him in a fresher context. This group also had a raspy vocalist reminiscent of David Ruffin, who provided a good juxtaposition to Harris. The first track and single, "Happy Man," is prime, rough-edged Philly disco and shows great chemistry between the group. While they no doubt had the goods, Impact is unfortunately a victim of a Philly lyrical mill that was running itself in the ground by the time this was released. But there are still gems here. Eli and Vinnie Barnett's "Man and Woman" is a classic sounding ballad with another fulfilling vocal from Harris as well as great harmony from the rest of the group. The last track, the bittersweet and mid-tempo "It Only Happens in the Movies," is reminiscent of Mighty Love-era Spinners and certainly was strong enough to be released as a single. Impact displays the vocal gifts of Harris as well as the Philly sound and both facts make this a must for fans.
~Review by Jason Elias

Impact - Impact (1976) [2013, Remastered Reissue] {Japan}

Impact - Impact (1976) [2013, Remastered Reissue] {Japan}




Release of this album: 1976 [LP ATCO Records, Cat.# SD 36-135, USA]
Release of this CD: 2013, April, 24 [CD ATCO Records/Warner Music Japan Inc. (Japan), Cat.# WPCR-27678 / EAN: 4943674137701]
℗ & © 1976 WEA International Inc., a Warner Music Group Company
Manufactured and distributed by Warner Music Japan Inc., a Warner Music Group Company.
Made in Japan


Note: Digitally Remastered Reissue, a part of "Atlantic 1000 R&B Best Collection" Series.

Credits:

Arranged By [Backing Vocals] – Bobby Eli, Impact
Art Direction, Design – Arnie Roberts
Bass – Michael "Sugar Bear" Foreman
Congas, Percussion – Darrell Rhodes, Larry Washington
Coordinator [Album] – Alan Rubens, Bobby Eli, Murry Swartz, Steve Bernstein
Drums – Jerry Jones
Engineer [Recording] – Carl Paruolo, Dirk Devlin, Jay Mark, Kenny Present
Executive-Producer – Alan Rubens, Steve Bernstein, WMOT Productions
Guitar – Bobby Eli, Norman Harris, TJ Tindall
Horns – Tower Of Power Horn Section (tracks: 1, 3, 4, 6)
Illustration – Charles Santore
Keyboards – Carlton "Cotton" Kent, Ron "Have Mercy" Kersey
Liner Notes – Dede Dabney
Photography By – Paul Wilson
Producer – Bobby Eli
Strings, Horns – Don Renaldo And His Horns And Strings
Typography [Lettering] – Don Strailey
Vibraphone [Vibes] – Vincent Montana, Jr.


Tracklist:

01. Happy Man (06:12)
(Bobby Eli, Charles Kelly)
02. Taboo (04:52)
(Bobby Eli, Len Barry)
03. Friends (03:08)
(Bobby Eli, Terry Collins)
04. Give A Broken Heart A Break (05:58)
(Bobby Eli, Len Barry)
05. One Last Memory (05:33)
(Bobby Eli, Len Barry)
06. Love Attack (03:33)
(Bobby Eli, Len Barry)
07. Winning Combination (03:40)
(Bobby Eli, Phil Hurtt)
08. Man And Woman (04:05)
(Bobby Eli, Vinnie Barrett)
09. It Only Happens In The Movies (03:20)
(Bobby Eli, Lee Philips)

Exact Audio Copy V1.3 from 2. September 2016

EAC extraction logfile from 4. July 2018, 16:33

Impact / Impact

Used drive : PIONEER BD-RW BDR-208D Adapter: 1 ID: 0

Read mode : Secure
Utilize accurate stream : Yes
Defeat audio cache : Yes
Make use of C2 pointers : No

Read offset correction : 667
Overread into Lead-In and Lead-Out : No
Fill up missing offset samples with silence : Yes
Delete leading and trailing silent blocks : No
Null samples used in CRC calculations : Yes
Used interface : Native Win32 interface for Win NT & 2000

Used output format : Internal WAV Routines
Sample format : 44.100 Hz; 16 Bit; Stereo


TOC of the extracted CD

Track | Start | Length | Start sector | End sector
––––––––––––––––––––––––––––-
1 | 0:00.00 | 6:11.60 | 0 | 27884
2 | 6:11.60 | 4:51.54 | 27885 | 49763
3 | 11:03.39 | 3:07.57 | 49764 | 63845
4 | 14:11.21 | 5:57.60 | 63846 | 90680
5 | 20:09.06 | 5:33.35 | 90681 | 115690
6 | 25:42.41 | 3:32.48 | 115691 | 131638
7 | 29:15.14 | 3:40.34 | 131639 | 148172
8 | 32:55.48 | 4:05.10 | 148173 | 166557
9 | 37:00.58 | 3:19.64 | 166558 | 181546


Range status and errors

Selected range

Filename D:\BlondStyle\Impact - Impact.wav

Peak level 100.0 %
Extraction speed 4.0 X
Range quality 99.9 %
Test CRC 5746B0C7
Copy CRC 5746B0C7
Copy OK

No errors occurred


AccurateRip summary

Track 1 accurately ripped (confidence 4) [C72AB643] (AR v2)
Track 2 accurately ripped (confidence 4) [F720EAC2] (AR v2)
Track 3 accurately ripped (confidence 4) [6F7386DE] (AR v2)
Track 4 accurately ripped (confidence 4) [37E6B86B] (AR v2)
Track 5 accurately ripped (confidence 4) [6698CD7A] (AR v2)
Track 6 accurately ripped (confidence 4) [79792F77] (AR v2)
Track 7 accurately ripped (confidence 4) [EF886D29] (AR v2)
Track 8 accurately ripped (confidence 4) [150E06FA] (AR v2)
Track 9 accurately ripped (confidence 4) [E53A1C2E] (AR v2)

All tracks accurately ripped

End of status report

–– CUETools DB Plugin V2.1.6

[CTDB TOCID: NhqZTFyIpvzYjEKEy0ilauoD2Eo-] found
Submit result: NhqZTFyIpvzYjEKEy0ilauoD2Eo- has been confirmed
Track | CTDB Status
1 | (12/12) Accurately ripped
2 | (12/12) Accurately ripped
3 | (12/12) Accurately ripped
4 | (12/12) Accurately ripped
5 | (12/12) Accurately ripped
6 | (12/12) Accurately ripped
7 | (12/12) Accurately ripped
8 | (12/12) Accurately ripped
9 | (12/12) Accurately ripped


==== Log checksum C440E6281FFD736C1EFE516289A8891A3C9F347D742EB7F58C1874EF108B987A ====

––––––––––––––––––––––––––––––––––––––––
Analyzed: Impact / Impact
––––––––––––––––––––––––––––––––––––––––

DR Peak RMS Duration Track
––––––––––––––––––––––––––––––––––––––––
DR9 0.00 dB -10.96 dB 6:12 01-Happy Man
DR10 0.00 dB -13.26 dB 4:52 02-Taboo
DR9 0.00 dB -10.49 dB 3:08 03-Friends
DR10 0.00 dB -11.81 dB 5:58 04-Give A Broken Heart A Break
DR10 0.00 dB -11.72 dB 5:33 05-One Last Memory
DR9 0.00 dB -10.72 dB 3:33 06-Love Attack
DR9 0.00 dB -10.55 dB 3:40 07-Winning Combination
DR9 0.00 dB -11.51 dB 4:05 08-Man And Woman
DR9 0.00 dB -10.88 dB 3:20 09-It Only Happens In The Movies
––––––––––––––––––––––––––––––––––––––––

Number of tracks: 9
Official DR value: DR9

Samplerate: 44100 Hz
Channels: 2
Bits per sample: 16
Bitrate: 921 kbps
Codec: FLAC
================================================================================

password: BlondStyle
SitemapBig Mouth | Watch movie | Hoàng Tử Truyền Kỳ