Subcategories

Julie London - The Ultimate Collection (2014) 3 CD Set [Re-Up]

Posted By: Designol
Julie London - The Ultimate Collection (2014) 3 CD Set [Re-Up]

Julie London - The Ultimate Collection (2014) 3 CD Set
EAC | FLAC | Image (Cue&Log) ~ 1 Gb | Mp3 (CBR320) ~ 467 Mb | Scans included
Vocal Jazz, Standarts, Vocal Pop | Label: Not Now Music | # NOT3CD170 | 03:11:31

Actress and singer Julie London is best remembered in pop terms for her much-covered classic ‘Cry Me A River’ a Number 9 US hit in 1955 and a Number 22 UK success two years later. But as this compilation shows, there was much more to the girl than one impressive song.

A sultry, smoky-voiced master of understatement, Julie London enjoyed considerable popularity during the cool era of the 1950s. London never had the range of Ella Fitzgerald or Sarah Vaughan, but often used restraint, softness, and subtlety to maximum advantage. An actress as well as a singer, London played with heavyweights like Gregory Peck and Rock Hudson in various films, and was married to Jack Webb of Dragnet fame for seven years before marrying songwriter Bobby Troup ("Route 66"). London performed her biggest hit, "Cry Me a River," in the Jayne Mansfield film The Girl Can't Help It. After recording her last album, Yummy, Yummy, Yummy, in 1969, she continued to act – playing a nurse on the NBC medical drama Emergency from 1974-1978. Despite her "sex symbol" image – London was known for her sexy LP covers, which make them collector's items – she was surprisingly shy, and left show biz altogether in the late '70s. In the mid-'90s London suffered a stroke, which led to a half-decade of poor health and ultimately contributed to her death on October 18, 2000.

Alex Henderson, Allmusic.com

Julie London - The Ultimate Collection (2014) 3 CD Set [Re-Up]



Tracklist:

CD1:

01. Cry Me A River (02:50)
02. Diamonds Are A Girl's Best Friend (01:59)
03. My Heart Belongs To Daddy (02:40)
04. September In The Rain (01:40)
05. Never On Sunday (02:23)
06. Bewitched, Bothered And Bewilderd (02:54)
07. Let There Be Love (02:02)
08. If I Should Lose You (02:48)
09. Hard Hearted Hannah (01:56)
10. A Nightingale Can Sing The Blues (03:09)
11. S' Wonderful (01:35)
12. What A Difference A Day Makes (02:06)
13. Make Love To Me (02:30)
14. 'Tain't What You Do (02:06)
15. You'd Be So Nice To Come Home To (02:13)
16. I'm In The Mood For Love (02:31)
17. You're My Thrill (01:54)
18. That Old Feeling (02:26)
19. How Long Has This Been Going On? (02:43)
20. After The Ball (02:44)
21. Misty (03:09)
22. Lonely Girl (02:33)
23. Two Sleepy People (03:15)
24. You Stepped Out Of A Dream (02:11)
25. Come On (02:39)

CD2:

01. Desafinado (Slightly Out Of Tune) (02:04)
02. How Deep Is The Ocean? (02:11)
03. Sentimental Journey (02:25)
04. Mad About The Boy (02:12)
05. Can't Help Lovin' That Man (03:13)
06. When I Fall In Love (03:21)
07. Gee Baby Ain't I Good To You (01:57)
08. Little White Lies (02:47)
09. The Nearness Of You (02:18)
10. I Love You (01:51)
11. In The Wee Small Hours (02:47)
12. The More I See You (02:59)
13. Makin' Whoopee (02:42)
14. June In January (02:08)
15. They Can't Take That Away From Me (03:08)
16. Tired (02:48)
17. What Is This Thing Called Love (01:47)
18. Meaning Of The Blues (02:55)
19. Blues In The Night (03:38)
20. All The Way (02:34)
21. When Your Lover Has Gone (01:54)
22. A Room With A View (02:52)
23. You And The Night And The Music (02:39)
24. Spring Is Here (02:05)
25. One For My Baby (04:06)

CD3:

01. Blue Moon (02:32)
02. Fools Rush In (02:09)
03. Second Time Around (03:02)
04. Goody Goody (01:57)
05. I Must Have That Man (02:17)
06. The Thrill Is Gone (03:19)
07. Hot Toddy (01:48)
08. My Man's Gone Now (03:46)
09. Where Or When (02:35)
10. How About Me? (03:06)
11. Black Coffee (02:50)
12. It's The Talk Of The Town (02:36)
13. Love Letters (02:53)
14. Daddy (02:17)
15. Say It Isnt So (02:01)
16. Invitation To The Blues (02:48)
17. A Stranger In Town (02:56)
18. Do It Again (02:19)
19. I'm Glad There Is You (02:29)
20. Basin Street Blues (03:03)
21. That's For Me (02:25)
22. Sophisticated Lady (02:35)
23. Bye Bye Blues (01:37)
24. What'll I Do? (01:58)
25. The Party's Over (03:22)


Exact Audio Copy V1.0 beta 6 from 9. April 2015

Отчёт EAC об извлечении, выполненном 14. апреля 2016, 12:21

Julie London / The ultimate Collection

Дисковод: ASUS DRW-24F1ST a Adapter: 1 ID: 0

Режим чтения : Достоверность
Использование точного потока : Да
Отключение кэша аудио : Да
Использование указателей C2 : Нет

Коррекция смещения при чтении : 6
Способность читать области Lead-in и Lead-out : Нет
Заполнение пропущенных сэмплов тишиной : Да
Удаление блоков с тишиной в начале и конце : Нет
При вычислениях CRC использовались нулевые сэмплы : Да
Интерфейс : Встроенный Win32-интерфейс для Win NT/2000

Выходной формат : Пользовательский кодировщик
Выбранный битрейт : 768 kBit/s
Качество : Высокий
Добавление ID3-тега : Нет
Утилита сжатия : C:\Program Files (x86)\Exact Audio Copy\FLAC\FLAC.EXE
Дополнительные параметры : -6 -V -T "ARTIST=%artist%" -T "TITLE=%title%" -T "ALBUM=%albumtitle%" -T "DATE=%year%" -T "TRACKNUMBER=%tracknr%" -T "GENRE=%genre%" -T "COMMENT=%comment%" -T "BAND=%albuminterpret%" -T "ALBUMARTIST=%albuminterpret%" -T "COMPOSER=%composer%" %haslyrics%–tag-from-file=LYRICS="%lyricsfile%"%haslyrics% -T "DISCNUMBER=%cdnumber%" -T "TOTALDISCS=%totalcds%" -T "TOTALTRACKS=%numtracks%" %hascover%–picture="%coverfile%"%hascover% %source% -o %dest%


TOC извлечённого CD

Трек | Старт | Длительность | Начальный сектор | Конечный сектор
––––––––––––––––––––––––––––––––––-
1 | 0:00.00 | 2:50.65 | 0 | 12814
2 | 2:50.65 | 1:59.68 | 12815 | 21807
3 | 4:50.58 | 2:40.23 | 21808 | 33830
4 | 7:31.06 | 1:40.41 | 33831 | 41371
5 | 9:11.47 | 2:23.43 | 41372 | 52139
6 | 11:35.15 | 2:54.11 | 52140 | 65200
7 | 14:29.26 | 2:02.28 | 65201 | 74378
8 | 16:31.54 | 2:48.41 | 74379 | 87019
9 | 19:20.20 | 1:56.66 | 87020 | 95785
10 | 21:17.11 | 3:09.29 | 95786 | 109989
11 | 24:26.40 | 1:35.66 | 109990 | 117180
12 | 26:02.31 | 2:06.08 | 117181 | 126638
13 | 28:08.39 | 2:30.56 | 126639 | 137944
14 | 30:39.20 | 2:06.27 | 137945 | 147421
15 | 32:45.47 | 2:13.30 | 147422 | 157426
16 | 34:59.02 | 2:31.42 | 157427 | 168793
17 | 37:30.44 | 1:54.63 | 168794 | 177406
18 | 39:25.32 | 2:26.54 | 177407 | 188410
19 | 41:52.11 | 2:43.49 | 188411 | 200684
20 | 44:35.60 | 2:44.58 | 200685 | 213042
21 | 47:20.43 | 3:09.54 | 213043 | 227271
22 | 50:30.22 | 2:33.34 | 227272 | 238780
23 | 53:03.56 | 3:15.05 | 238781 | 253410
24 | 56:18.61 | 2:11.72 | 253411 | 263307
25 | 58:30.58 | 2:39.07 | 263308 | 275239


Характеристики диапазона извлечения и сообщения об ошибках

Выбранный диапазон

Имя файла D:\Julie London. The Ultimate Collection [3CD Box Set] (2014)\CD1\Julie London - The ultimate Collection.wav

Пиковый уровень 98.6 %
Скорость извлечения 4.7 X
Качество диапазона 100.0 %
CRC теста 8F3539AB
CRC копии 8F3539AB
Копирование… OK

Ошибок не произошло


AccurateRip: сводка

Трек 1 : извлечено точно (доверие 2) [B8CB9B9E] (AR v2)
Трек 2 : извлечено точно (доверие 2) [8EF28113] (AR v2)
Трек 3 : извлечено точно (доверие 2) [59743609] (AR v2)
Трек 4 : извлечено точно (доверие 2) [3124C8CB] (AR v2)
Трек 5 : извлечено точно (доверие 2) [7DC2136F] (AR v2)
Трек 6 : извлечено точно (доверие 2) [AE24481C] (AR v2)
Трек 7 : извлечено точно (доверие 2) [325EF5DC] (AR v2)
Трек 8 : извлечено точно (доверие 2) [1B9566E6] (AR v2)
Трек 9 : извлечено точно (доверие 2) [40B41D79] (AR v2)
Трек 10 : извлечено точно (доверие 2) [241BC0C6] (AR v2)
Трек 11 : извлечено точно (доверие 2) [033EDCC0] (AR v2)
Трек 12 : извлечено точно (доверие 2) [89950954] (AR v2)
Трек 13 : извлечено точно (доверие 2) [CEE8A96A] (AR v2)
Трек 14 : извлечено точно (доверие 2) [E03A8E12] (AR v2)
Трек 15 : извлечено точно (доверие 2) [61F84FF1] (AR v2)
Трек 16 : извлечено точно (доверие 2) [DE968FCB] (AR v2)
Трек 17 : извлечено точно (доверие 2) [85277F8B] (AR v2)
Трек 18 : извлечено точно (доверие 2) [14AB4345] (AR v2)
Трек 19 : извлечено точно (доверие 2) [0AB03468] (AR v2)
Трек 20 : извлечено точно (доверие 2) [C7C30FDC] (AR v2)
Трек 21 : извлечено точно (доверие 2) [254D2ED5] (AR v2)
Трек 22 : извлечено точно (доверие 2) [02D32956] (AR v2)
Трек 23 : извлечено точно (доверие 2) [67E05B18] (AR v2)
Трек 24 : извлечено точно (доверие 2) [B4933F57] (AR v2)
Трек 25 : извлечено точно (доверие 2) [1E16AEE6] (AR v2)

Все треки извлечены точно

Конец отчёта

==== Контрольная сумма отчёта E419E9C39FD9272592AEAD9978B6571ED973F14922A2371F9DD348B9C5926AB3 ====

foobar2000 1.2 / Dynamic Range Meter 1.1.1
log date: 2016-04-14 19:28:51

––––––––––––––––––––––––––––––––––––––––
Analyzed: Julie London / The ultimate Collection
––––––––––––––––––––––––––––––––––––––––

DR Peak RMS Duration Track
––––––––––––––––––––––––––––––––––––––––
DR9 -0.15 dB -11.62 dB 2:51 01-Cry Me A River
DR9 -0.12 dB -12.25 dB 2:00 02-Diamonds Are A Girl's Best Friend
DR9 -0.14 dB -11.94 dB 2:40 03-My Heart Belongs To Daddy
DR11 -0.13 dB -13.08 dB 1:41 04-September In The Rain
DR10 -0.14 dB -12.15 dB 2:24 05-Never On Sunday
DR10 -0.15 dB -12.31 dB 2:54 06-Bewitched, Bothered And Bewilderd
DR11 -0.14 dB -13.71 dB 2:02 07-Let There Be Love
DR9 -0.14 dB -12.17 dB 2:49 08-If I Should Lose You
DR9 -0.15 dB -11.52 dB 1:57 09-Hard Hearted Hannah
DR9 -0.15 dB -11.85 dB 3:09 10-A Nightingale Can Sing The Blues
DR8 -0.15 dB -10.04 dB 1:36 11-S' Wonderful
DR10 -0.14 dB -12.08 dB 2:06 12-What A Difference A Day Makes
DR10 -0.15 dB -13.19 dB 2:31 13-Make Love To Me
DR11 -0.14 dB -13.01 dB 2:06 14-'Tain't What You Do
DR11 -0.14 dB -12.37 dB 2:13 15-You'd Be So Nice To Come Home To
DR10 -0.15 dB -12.15 dB 2:32 16-I'm In The Mood For Love
DR8 -0.15 dB -11.43 dB 1:55 17-You're My Thrill
DR9 -0.15 dB -11.41 dB 2:27 18-That Old Feeling
DR9 -0.13 dB -11.97 dB 2:44 19-How Long Has This Been Going On?
DR12 -0.14 dB -14.65 dB 2:45 20-After The Ball
DR11 -0.15 dB -13.26 dB 3:10 21-Misty
DR9 -0.15 dB -12.06 dB 2:33 22-Lonely Girl
DR10 -0.15 dB -12.94 dB 3:15 23-Two Sleepy People
DR11 -0.15 dB -13.42 dB 2:12 24-You Stepped Out Of A Dream
DR11 -0.15 dB -13.91 dB 2:39 25-Come On
––––––––––––––––––––––––––––––––––––––––

Number of tracks: 25
Official DR value: DR10

Samplerate: 44100 Hz
Channels: 2
Bits per sample: 16
Bitrate: 709 kbps
Codec: FLAC
================================================================================


Exact Audio Copy V1.0 beta 6 from 9. April 2015

Отчёт EAC об извлечении, выполненном 14. апреля 2016, 13:20

Julie London / The Ultimate Collection, cd 2

Дисковод: ASUS DRW-24F1ST a Adapter: 1 ID: 0

Режим чтения : Достоверность
Использование точного потока : Да
Отключение кэша аудио : Да
Использование указателей C2 : Нет

Коррекция смещения при чтении : 6
Способность читать области Lead-in и Lead-out : Нет
Заполнение пропущенных сэмплов тишиной : Да
Удаление блоков с тишиной в начале и конце : Нет
При вычислениях CRC использовались нулевые сэмплы : Да
Интерфейс : Встроенный Win32-интерфейс для Win NT/2000

Выходной формат : Пользовательский кодировщик
Выбранный битрейт : 768 kBit/s
Качество : Высокий
Добавление ID3-тега : Нет
Утилита сжатия : C:\Program Files (x86)\Exact Audio Copy\FLAC\FLAC.EXE
Дополнительные параметры : -6 -V -T "ARTIST=%artist%" -T "TITLE=%title%" -T "ALBUM=%albumtitle%" -T "DATE=%year%" -T "TRACKNUMBER=%tracknr%" -T "GENRE=%genre%" -T "COMMENT=%comment%" -T "BAND=%albuminterpret%" -T "ALBUMARTIST=%albuminterpret%" -T "COMPOSER=%composer%" %haslyrics%–tag-from-file=LYRICS="%lyricsfile%"%haslyrics% -T "DISCNUMBER=%cdnumber%" -T "TOTALDISCS=%totalcds%" -T "TOTALTRACKS=%numtracks%" %hascover%–picture="%coverfile%"%hascover% %source% -o %dest%


TOC извлечённого CD

Трек | Старт | Длительность | Начальный сектор | Конечный сектор
––––––––––––––––––––––––––––––––––-
1 | 0:00.00 | 2:04.66 | 0 | 9365
2 | 2:04.66 | 2:11.43 | 9366 | 19233
3 | 4:16.34 | 2:25.31 | 19234 | 30139
4 | 6:41.65 | 2:12.26 | 30140 | 40065
5 | 8:54.16 | 3:13.25 | 40066 | 54565
6 | 12:07.41 | 3:21.31 | 54566 | 69671
7 | 15:28.72 | 1:57.42 | 69672 | 78488
8 | 17:26.39 | 2:47.20 | 78489 | 91033
9 | 20:13.59 | 2:18.41 | 91034 | 101424
10 | 22:32.25 | 1:51.10 | 101425 | 109759
11 | 24:23.35 | 2:47.15 | 109760 | 122299
12 | 27:10.50 | 2:59.32 | 122300 | 135756
13 | 30:10.07 | 2:42.25 | 135757 | 147931
14 | 32:52.32 | 2:08.04 | 147932 | 157535
15 | 35:00.36 | 3:08.21 | 157536 | 171656
16 | 38:08.57 | 2:48.17 | 171657 | 184273
17 | 40:56.74 | 1:47.12 | 184274 | 192310
18 | 42:44.11 | 2:55.74 | 192311 | 205509
19 | 45:40.10 | 3:38.74 | 205510 | 221933
20 | 49:19.09 | 2:34.39 | 221934 | 233522
21 | 51:53.48 | 1:54.19 | 233523 | 242091
22 | 53:47.67 | 2:52.14 | 242092 | 255005
23 | 56:40.06 | 2:39.15 | 255006 | 266945
24 | 59:19.21 | 2:05.51 | 266946 | 276371
25 | 61:24.72 | 4:06.20 | 276372 | 294841


Характеристики диапазона извлечения и сообщения об ошибках

Выбранный диапазон

Имя файла D:\Julie London. The Ultimate Collection [3CD Box Set] (2014)\CD2\Julie London - The Ultimate Collection, cd 2.wav

Пиковый уровень 98.7 %
Скорость извлечения 3.1 X
Качество диапазона 99.9 %
CRC теста 737B48DD
CRC копии 737B48DD
Копирование… OK

Ошибок не произошло


AccurateRip: сводка

Трек 1 : извлечено точно (доверие 2) [A7996D55] (AR v2)
Трек 2 : извлечено точно (доверие 2) [A83D744B] (AR v2)
Трек 3 : извлечено точно (доверие 2) [A7268F7C] (AR v2)
Трек 4 : извлечено точно (доверие 2) [2B7F5ECB] (AR v2)
Трек 5 : извлечено точно (доверие 2) [D2D385BB] (AR v2)
Трек 6 : извлечено точно (доверие 2) [E6C1AB5E] (AR v2)
Трек 7 : извлечено точно (доверие 2) [E5EDE63E] (AR v2)
Трек 8 : извлечено точно (доверие 2) [2E198C75] (AR v2)
Трек 9 : извлечено точно (доверие 2) [B980AB90] (AR v2)
Трек 10 : извлечено точно (доверие 2) [DE7AA431] (AR v2)
Трек 11 : извлечено точно (доверие 2) [37FE1FF0] (AR v2)
Трек 12 : извлечено точно (доверие 2) [66DAF47C] (AR v2)
Трек 13 : извлечено точно (доверие 2) [EABA15BC] (AR v2)
Трек 14 : извлечено точно (доверие 2) [934C7A62] (AR v2)
Трек 15 : извлечено точно (доверие 2) [EE029DFA] (AR v2)
Трек 16 : извлечено точно (доверие 2) [2AB09976] (AR v2)
Трек 17 : извлечено точно (доверие 2) [B30F0A71] (AR v2)
Трек 18 : извлечено точно (доверие 2) [616F306E] (AR v2)
Трек 19 : извлечено точно (доверие 2) [1C6DC97D] (AR v2)
Трек 20 : извлечено точно (доверие 2) [550096D7] (AR v2)
Трек 21 : извлечено точно (доверие 2) [64803670] (AR v2)
Трек 22 : извлечено точно (доверие 2) [59F25063] (AR v2)
Трек 23 : извлечено точно (доверие 2) [39B07D5C] (AR v2)
Трек 24 : извлечено точно (доверие 2) [51789351] (AR v2)
Трек 25 : извлечено точно (доверие 2) [E8E19C2E] (AR v2)

Все треки извлечены точно

Конец отчёта

==== Контрольная сумма отчёта 98E9FC9561B28012FB6C1DC9226699BDB2D3082A5D2F51A60926D3F3ABFCB1FC ====

foobar2000 1.2 / Dynamic Range Meter 1.1.1
log date: 2016-04-14 19:29:16

––––––––––––––––––––––––––––––––––––––––
Analyzed: Julie London / The Ultimate Collection, cd 2
––––––––––––––––––––––––––––––––––––––––

DR Peak RMS Duration Track
––––––––––––––––––––––––––––––––––––––––
DR11 -0.15 dB -12.99 dB 2:05 01-Desafinado (Slightly Out Of Tune)
DR8 -0.14 dB -11.89 dB 2:12 02-How Deep Is The Ocean?
DR10 -0.14 dB -12.02 dB 2:25 03-Sentimental Journey
DR8 -0.15 dB -10.06 dB 2:12 04-Mad About The Boy
DR7 -0.15 dB -9.39 dB 3:13 05-Can't Help Lovin' That Man
DR10 -0.13 dB -12.48 dB 3:21 06-When I Fall In Love
DR9 -0.14 dB -11.40 dB 1:58 07-Gee Baby Ain't I Good To You
DR10 -0.15 dB -12.87 dB 2:47 08-Little White Lies
DR8 -0.15 dB -11.54 dB 2:19 09-The Nearness Of You
DR8 -0.15 dB -9.59 dB 1:51 10-I Love You
DR9 -0.14 dB -11.43 dB 2:47 11-In The Wee Small Hours
DR9 -0.15 dB -11.49 dB 2:59 12-The More I See You
DR11 -0.12 dB -14.00 dB 2:42 13-Makin' Whoopee
DR10 -0.14 dB -12.58 dB 2:08 14-June In January
DR9 -0.15 dB -11.84 dB 3:08 15-They Can't Take That Away From Me
DR9 -0.11 dB -11.88 dB 2:48 16-Tired
DR10 -0.15 dB -12.85 dB 1:47 17-What Is This Thing Called Love
DR9 -0.15 dB -11.22 dB 2:56 18-Meaning Of The Blues
DR9 -0.14 dB -12.49 dB 3:39 19-Blues In The Night
DR9 -0.14 dB -12.21 dB 2:35 20-All The Way
DR10 -0.15 dB -13.24 dB 1:54 21-When Your Lover Has Gone
DR9 -0.15 dB -11.28 dB 2:52 22-A Room With A View
DR9 -0.14 dB -10.93 dB 2:39 23-You And The Night And The Music
DR8 -0.15 dB -13.65 dB 2:06 24-Spring Is Here
DR10 -0.15 dB -12.66 dB 4:06 25-One For My Baby
––––––––––––––––––––––––––––––––––––––––

Number of tracks: 25
Official DR value: DR9

Samplerate: 44100 Hz
Channels: 2
Bits per sample: 16
Bitrate: 690 kbps
Codec: FLAC
================================================================================


Exact Audio Copy V1.0 beta 6 from 9. April 2015

Отчёт EAC об извлечении, выполненном 14. апреля 2016, 14:23

Julie London / The Ultimate Collection, cd 3

Дисковод: ASUS DRW-24F1ST a Adapter: 1 ID: 0

Режим чтения : Достоверность
Использование точного потока : Да
Отключение кэша аудио : Да
Использование указателей C2 : Нет

Коррекция смещения при чтении : 6
Способность читать области Lead-in и Lead-out : Нет
Заполнение пропущенных сэмплов тишиной : Да
Удаление блоков с тишиной в начале и конце : Нет
При вычислениях CRC использовались нулевые сэмплы : Да
Интерфейс : Встроенный Win32-интерфейс для Win NT/2000

Выходной формат : Пользовательский кодировщик
Выбранный битрейт : 768 kBit/s
Качество : Высокий
Добавление ID3-тега : Нет
Утилита сжатия : C:\Program Files (x86)\Exact Audio Copy\FLAC\FLAC.EXE
Дополнительные параметры : -6 -V -T "ARTIST=%artist%" -T "TITLE=%title%" -T "ALBUM=%albumtitle%" -T "DATE=%year%" -T "TRACKNUMBER=%tracknr%" -T "GENRE=%genre%" -T "COMMENT=%comment%" -T "BAND=%albuminterpret%" -T "ALBUMARTIST=%albuminterpret%" -T "COMPOSER=%composer%" %haslyrics%–tag-from-file=LYRICS="%lyricsfile%"%haslyrics% -T "DISCNUMBER=%cdnumber%" -T "TOTALDISCS=%totalcds%" -T "TOTALTRACKS=%numtracks%" %hascover%–picture="%coverfile%"%hascover% %source% -o %dest%


TOC извлечённого CD

Трек | Старт | Длительность | Начальный сектор | Конечный сектор
––––––––––––––––––––––––––––––––––-
1 | 0:00.00 | 2:32.39 | 0 | 11438
2 | 2:32.39 | 2:09.04 | 11439 | 21117
3 | 4:41.43 | 3:02.06 | 21118 | 34773
4 | 7:43.49 | 1:57.18 | 34774 | 43566
5 | 9:40.67 | 2:17.33 | 43567 | 53874
6 | 11:58.25 | 3:19.23 | 53875 | 68822
7 | 15:17.48 | 1:48.17 | 68823 | 76939
8 | 17:05.65 | 3:46.47 | 76940 | 93936
9 | 20:52.37 | 2:35.22 | 93937 | 105583
10 | 23:27.59 | 3:06.36 | 105584 | 119569
11 | 26:34.20 | 2:50.30 | 119570 | 132349
12 | 29:24.50 | 2:36.48 | 132350 | 144097
13 | 32:01.23 | 2:53.40 | 144098 | 157112
14 | 34:54.63 | 2:17.59 | 157113 | 167446
15 | 37:12.47 | 2:01.69 | 167447 | 176590
16 | 39:14.41 | 2:48.33 | 176591 | 189223
17 | 42:02.74 | 2:56.09 | 189224 | 202432
18 | 44:59.08 | 2:19.40 | 202433 | 212897
19 | 47:18.48 | 2:29.06 | 212898 | 224078
20 | 49:47.54 | 3:03.71 | 224079 | 237874
21 | 52:51.50 | 2:25.30 | 237875 | 248779
22 | 55:17.05 | 2:35.43 | 248780 | 260447
23 | 57:52.48 | 1:37.41 | 260448 | 267763
24 | 59:30.14 | 1:58.07 | 267764 | 276620
25 | 61:28.21 | 3:22.12 | 276621 | 291782


Характеристики диапазона извлечения и сообщения об ошибках

Выбранный диапазон

Имя файла D:\Julie London. The Ultimate Collection [3CD Box Set] (2014)\CD3\Julie London - The Ultimate Collection, cd 3.wav

Пиковый уровень 98.4 %
Скорость извлечения 3.2 X
Качество диапазона 100.0 %
CRC теста 3020C4D9
CRC копии 3020C4D9
Копирование… OK

Ошибок не произошло


AccurateRip: сводка

Трек 1 : извлечено точно (доверие 1) [E81FE3C4] (AR v2)
Трек 2 : извлечено точно (доверие 2) [F31D6F5A] (AR v2)
Трек 3 : извлечено точно (доверие 2) [0BB73198] (AR v2)
Трек 4 : извлечено точно (доверие 2) [6F13AF92] (AR v2)
Трек 5 : извлечено точно (доверие 2) [5B2A00B5] (AR v2)
Трек 6 : извлечено точно (доверие 2) [65F5FA35] (AR v2)
Трек 7 : извлечено точно (доверие 2) [4E58D10C] (AR v2)
Трек 8 : извлечено точно (доверие 2) [2A760070] (AR v2)
Трек 9 : извлечено точно (доверие 2) [8C3A114A] (AR v2)
Трек 10 : извлечено точно (доверие 2) [68BA8CD4] (AR v2)
Трек 11 : извлечено точно (доверие 2) [F213B258] (AR v2)
Трек 12 : извлечено точно (доверие 2) [048FE411] (AR v2)
Трек 13 : извлечено точно (доверие 2) [2D24A8BA] (AR v2)
Трек 14 : извлечено точно (доверие 2) [F8130B87] (AR v2)
Трек 15 : извлечено точно (доверие 2) [DC0A994C] (AR v2)
Трек 16 : извлечено точно (доверие 2) [D02A878D] (AR v2)
Трек 17 : извлечено точно (доверие 2) [8526E068] (AR v2)
Трек 18 : извлечено точно (доверие 2) [489A48CD] (AR v2)
Трек 19 : извлечено точно (доверие 2) [33F5B432] (AR v2)
Трек 20 : извлечено точно (доверие 2) [548E0DC7] (AR v2)
Трек 21 : извлечено точно (доверие 2) [FD7BA0B1] (AR v2)
Трек 22 : извлечено точно (доверие 2) [64ED5115] (AR v2)
Трек 23 : извлечено точно (доверие 2) [C3ED1D0D] (AR v2)
Трек 24 : извлечено точно (доверие 2) [37478020] (AR v2)
Трек 25 : извлечено точно (доверие 2) [DBDAFEF6] (AR v2)

Все треки извлечены точно

Конец отчёта

==== Контрольная сумма отчёта 3CE82069E474156EB252850E570CDB1D2752ED086653269E330213EEDEB2EEE0 ====

foobar2000 1.2 / Dynamic Range Meter 1.1.1
log date: 2016-04-14 19:29:35

––––––––––––––––––––––––––––––––––––––––
Analyzed: Julie London / The Ultimate Collection, cd 3
––––––––––––––––––––––––––––––––––––––––

DR Peak RMS Duration Track
––––––––––––––––––––––––––––––––––––––––
DR11 -0.15 dB -13.52 dB 2:33 01-Blue Moon
DR9 -0.15 dB -12.35 dB 2:09 02-Fools Rush In
DR9 -0.15 dB -12.01 dB 3:02 03-Second Time Around
DR8 -0.14 dB -10.67 dB 1:57 04-Goody Goody
DR8 -0.15 dB -10.38 dB 2:17 05-I Must Have That Man
DR11 -0.15 dB -13.09 dB 3:19 06-The Thrill Is Gone
DR8 -0.15 dB -11.49 dB 1:48 07-Hot Toddy
DR9 -0.15 dB -12.32 dB 3:47 08-My Man's Gone Now
DR10 -0.15 dB -12.53 dB 2:35 09-Where Or When
DR10 -0.15 dB -12.81 dB 3:06 10-How About Me?
DR10 -0.15 dB -12.60 dB 2:50 11-Black Coffee
DR9 -0.15 dB -11.41 dB 2:37 12-It's The Talk Of The Town
DR11 -0.15 dB -13.71 dB 2:54 13-Love Letters
DR10 -0.15 dB -12.96 dB 2:18 14-Daddy
DR9 -0.15 dB -11.77 dB 2:02 15-Say It Isnt So
DR10 -0.14 dB -12.72 dB 2:48 16-Invitation To The Blues
DR9 -0.15 dB -11.96 dB 2:56 17-A Stranger In Town
DR8 -0.14 dB -11.14 dB 2:20 18-Do It Again
DR8 -0.15 dB -10.33 dB 2:29 19-I'm Glad There Is You
DR10 -0.14 dB -13.13 dB 3:04 20-Basin Street Blues
DR10 -0.15 dB -12.74 dB 2:25 21-That's For Me
DR10 -0.15 dB -13.40 dB 2:36 22-Sophisticated Lady
DR9 -0.15 dB -12.23 dB 1:38 23-Bye Bye Blues
DR12 -0.15 dB -15.01 dB 1:58 24-What'll I Do?
DR9 -0.15 dB -11.21 dB 3:22 25-The Party's Over
––––––––––––––––––––––––––––––––––––––––

Number of tracks: 25
Official DR value: DR10

Samplerate: 44100 Hz
Channels: 2
Bits per sample: 16
Bitrate: 704 kbps
Codec: FLAC
================================================================================

Julie London - The Ultimate Collection (2014) 3 CD Set [Re-Up]

Julie London - The Ultimate Collection (2014) 3 CD Set [Re-Up]

All thanks to original releaser - lukya

More interesting music in My Blog
SitemapPhim Gạo Nếp Gạo Tẻ 16 Trên HTV2 | Eleanor Tomlinson | Senran Kagura (0)